Search

I Frankenstein 2014

Description

::Release Information::

Release Name: I Frankenstein 2014 DVDRiP DiVX MP3-ART3MiS
Format: AVI
Size: 1.02 GB
Video: DivX | 720 x 304 | 1 496 Kbps | 23.976 FPS | 2.35:1
Audio: English | 128 Kbps | 2 ch | MP3
Runtime: 1h 29mn 15sec
Subtitles: None
Source: OWN

::IMDB Information::

Year: 2014
Name: I Frankenstein
Genre: Action | Fantasy | Sci-Fi
IMDB Link: http://www.imdb.com/title/tt1418377/
IMDB Rating: 5.5/10 from 9,704 users
Director: Stuart Beattie
Writers: Stuart Beattie (screenplay), Kevin Grevioux (screen story)
Cast: Aaron Eckhart, Bill Nighy, Miranda Otto
Plot: Frankenstein's creature finds himself caught in an all-out,
centuries old war between two immortal clans.

::More Information::

General
Complete name : I, Frankenstein 2014 DVDRiP.DiVX.MP3-ART3MiS.avi
Format : AVI
Format/Info : Audio Video Interleave
Format profile : OpenDML
File size : 1.02 GiB
Duration : 1h 29mn
Overall bit rate : 1 640 Kbps
Writing application : Lavf51.12.1

Video
ID : 0
Format : MPEG-4 Visual
Format profile : Simple@L1
Format settings, BVOP : No
Format settings, QPel : No
Format settings, GMC : No warppoints
Format settings, Matrix : Default (H.263)
Codec ID : DX50
Codec ID/Hint : DivX 5
Duration : 1h 29mn
Bit rate : 1 496 Kbps
Width : 720 pixels
Height : 304 pixels
Display aspect ratio : 2.35:1
Frame rate : 25.000 fps
Color space : YUV
Chroma subsampling : 4:2:0
Bit depth : 8 bits
Scan type : Progressive
Compression mode : Lossy
Bits/(Pixel*Frame) : 0.273
Stream size : 955 MiB (91%)
Writing library : Lavc51.40.4

Audio
ID : 1
Format : MPEG Audio
Format version : Version 1
Format profile : Layer 3
Mode : Joint stereo
Codec ID : 55
Codec ID/Hint : MP3
Duration : 1h 29mn
Bit rate mode : Constant
Bit rate : 128 Kbps
Channel(s) : 2 channels
Sampling rate : 44.1 KHz
Compression mode : Lossy
Stream size : 81.7 MiB (8%)
Alignment : Aligned on interleaves
Interleave, duration : 26 ms (0.65 video frame)
Interleave, preload duration : 26 ms
Writing library : LAME3.97

::Greetz and Respect::

Torrent Download

Total comments: 0
Only registered users can add comments.
[ Sign Up | Login ]

Newest Files

Top Commentators

All contents © copyright 2009-2014 The File Zone, Inc. All rights reserved. Powered by uCoz