Search

Need For Speed 2014 HD-TS XVID AC3 HQ Hive-CM8

Description

http://www.imdb.com/title/tt2369135/

Fresh from prison, a street racer who was framed by a wealthy business associate joins a cross country race with revenge in mind. His ex-partner, learning of the plan, places a massive bounty on his head as the race begins.

Director: Scott Waugh
Writers: George Gatins (screenplay), George Gatins (story)
Stars: Aaron Paul, Dominic Cooper, Scott Mescudi
Genres: Action | Crime | Drama | Thriller
Country: USA
Language: English

Need.For.Speed.2014.HD-TS.XVID.AC3.HQ.Hive-CM8

Thx Hive

CM8 Doing It Right The First Time

Sources:

Video:Original Chinese HDCAM + Naked Man Scene from Spanish Cam
Audio: Line (Echo)
thx

Notes:

for sources so far we have seen:
a) smy release with chinese subs all over
b) diy release with better video but watermarks all over
c) that "so called 1080p cam" which looks washed out and is stuttering like hell on all action scenes,
which makes that movie experience unenjoyable since 80% are action scenes in this movie
dont know what happened with that one, but if i had to guess it got upscaled from that rmvb file that had only 15frames.

finally I got the real source file which is perfect, no framerate issues, no watermarks,no jerky video, no additional foreign subs
all very nice - a bit dark perhaps on night scenes but i think i got that covered,
some occasional screen translation subs were still in the video hardcoded, left them in it no need for blurring or cropping them

Encode:

added brightness,sharpness,contrast,saturation and fixed rgb without going over

noticed like in all chinese cams the nudity scene got cut out, what a bummer, that belongs into the video
so i got the spanish cam which was ok-ish but had the nudity scene in it,
i cut out that 20sec scene and placed it into my video and used the audio from Mr. Bootlegger for it (thx btw)

Audio is from Echo out of the Millenium release, which was very nice
did the usual with it, ran it through cleaning and synced it back to my video

all in all its perfect now and will do me till retail
already watched my version, i really enjoyed the movie its great fun like this

Video: 720x304 @bitrate 1700 2pass
Audio: English AC3 2.0 Stereo Line
Sample: yes included

http://www.imdb.com/title/tt2369135/

General
Complete name : Need.For.Speed.2014.HD-TS.XVID.AC3.HQ.Hive-CM8.avi
Format : AVI
Format/Info : Audio Video Interleave
File size : 1.80 GiB
Duration : 2h 10mn
Overall bit rate : 1 967 Kbps
Writing application : Nandub v1.0rc2
Writing library : Nandub build 1853/release

Video
ID : 0
Format : MPEG-4 Visual
Format profile : Advanced Simple@L5
Format settings, BVOP : 2
Format settings, QPel : Yes
Format settings, GMC : No warppoints
Format settings, Matrix : Default (H.263)
Muxing mode : Packed bitstream
Codec ID : XVID
Codec ID/Hint : XviD
Duration : 2h 10mn
Bit rate : 1 699 Kbps
Width : 720 pixels
Height : 304 pixels
Display aspect ratio : 2.35:1
Frame rate : 29.970 fps
Color space : YUV
Chroma subsampling : 4:2:0
Bit depth : 8 bits
Scan type : Progressive
Compression mode : Lossy
Bits/(Pixel*Frame) : 0.259
Stream size : 1.55 GiB (86%)
Writing library : XviD 1.2.1 (UTC 2008-12-04)

Audio
ID : 1
Format : AC-3
Format/Info : Audio Coding 3
Mode extension : CM (complete main)
Format settings, Endianness : Big
Codec ID : 2000
Duration : 2h 10mn
Bit rate mode : Constant
Bit rate : 256 Kbps
Channel(s) : 2 channels
Channel positions : Front: L R
Sampling rate : 48.0 KHz
Bit depth : 16 bits
Compression mode : Lossy
Delay relative to video : 14ms
Stream size : 240 MiB (13%)
Alignment : Split accross interleaves
Interleave, duration : 33 ms (1.00 video frame)
Interleave, preload duration : 500 ms

Total comments: 0
Only registered users can add comments.
[ Sign Up | Login ]

Newest Files

Top Commentators

All contents © copyright 2009-2014 The File Zone, Inc. All rights reserved. Powered by uCoz