The Machine 2014 DVDRIP
[ Download from this server (121.6Kb) · Screenshot ]2014-04-09, 2:23 PM
Two computer programmers fall in love as they create the first ever piece of self-aware artificial intelligence, which is designed to help humanity. But things go wrong when the MoD steal ...

Director: Caradog W. James
Writer: Caradog W. James
Stars: Caity Lotz, Toby Stephens, Sam Hazeldine
Genres: Sci-Fi | Thriller
Country: UK
Language: English

Format : AVI
Format/Info : Audio Video Interleave
File size : 1.49 GiB
Duration : 1h 26mn
Overall bit rate : 2 466 Kbps
Writing library : VirtualDub build 30091/release

Video
ID : 0
Format : MPEG-4 Visual
Format profile : Advanced Simple@L5
Format settings, BVOP : 2
Format settings, QPel : No
Format settings, GMC : No warppoints
Format settings, Matrix : Default (H.263)
Muxing mode : Packed bitstream
Codec ID : XVID
Codec ID/Hint : XviD
Duration : 1h 26mn
Bit rate : 2 008 Kbps
Width : 720 pixels
Height : 400 pixels
Display aspect ratio : 16:9
Frame rate : 25.000 fps
Color space : YUV
Chroma subsampling : 4:2:0
Bit depth : 8 bits
Scan type : Progressive
Compression mode : Lossy
Bits/(Pixel*Frame) : 0.279
Stream size : 1.22 GiB (81%)
Writing library : XviD 1.2.1 (UTC 2008-12-04)

Audio
ID : 1
Format : AC-3
Format/Info : Audio Coding 3
Mode extension : CM (complete main)
Format settings, Endianness : Big
Codec ID : 2000
Duration : 1h 26mn
Bit rate mode : Constant
Bit rate : 448 Kbps
Channel(s) : 6 channels
Channel positions : Front: L C R, Side: L R, LFE
Sampling rate : 48.0 KHz
Bit depth : 16 bits
Compression mode : Lossy
Stream size : 278 MiB (18%)
Category: Movies | Added by: Animorph | Tags: 2014, the, dvdrip, movies, Machine
Views: 116 | Downloads: 0 | Rating: 0.0/0
Total comments: 0
Only registered users can add comments.
[ Sign Up | Log In ]